Vikings S04E17 The Great Army 720p WEB-DL HEVC 2CH x265 (download torrent) - TPB

Details for this torrent 

Vikings S04E17 The Great Army 720p WEB-DL HEVC 2CH x265
Type:
Video > HD - TV shows
Files:
1
Size:
338.25 MiB (354685312 Bytes)
Info:
IMDB
Spoken language(s):
English
Texted language(s):
English
Tag(s):
x265 hevc 720p
Uploaded:
2017-01-12 12:17:52 GMT
By:
nayhtut Trusted
Seeders:
0
Leechers:
0
Comments
0  

Info Hash:
814A825CCAA5D3B11DD5F20CC7B1E3D700028380




(Problems with magnets links are fixed by upgrading your torrent client!)
Source:Vikings S04E17 1080p WEB-DL x264-FUM (1.7 GB)

 
Complete name: Vikings.S04E17.The.Great.Army.720p.WEB-DL.HEVC.2CH.x265.mkv
Format                                   : Matroska
Format version                           : Version 4 / Version 2
File size                                : 338 MiB
Duration                                 : 44mn 11s
Overall bit rate                         : 1 070 Kbps
Writing application                      : Lavf57.25.100

Video

ID                                       : 1
Format                                   : V_MPEGH/ISO/HEVC
Duration                                 : 44mn 11s
Bit rate                                 : 825 Kbps
Width                                    : 1 280 pixels
Height                                   : 718 pixels
Display aspect ratio                     : 16:9
Frame rate                               : 25.000 fps
Bits/(Pixel*Frame)                       : 0.036
Stream size                              : 261 MiB (77%)
Default                                  : Yes
Forced                                   : No
DURATION                                 : 00:44:11.211000000

Audio

ID                                       : 2
Format                                   : AC-3
Format/Info                              : Audio Coding 3
Mode extension                           : CM (complete main)
Format settings, Endianness              : Big
Codec ID                                 : A_AC3
Duration                                 : 44mn 11s
Bit rate mode                            : Constant
Bit rate                                 : 224 Kbps
Channel(s)                               : 2 channels
Channel positions                        : Front: L R
Sampling rate                            : 48.0 KHz
Bit depth                                : 16 bits
Compression mode                         : Lossy
Stream size                              : 70.8 MiB (21%)
Writing library                          : Lavc57.24.102 ac3
Default                                  : Yes
Forced                                   : No
DURATION                                 : 00:44:11.231000000

Text

ID                                       : 3
Codec ID                                 : S_TEXT/ASS
Language                                 : English