Details for this torrent 

Star Wars Rebels S03E11 Ghosts of Geonosis: Part 1 1080P WEB-DL
Type:
Video > HD - TV shows
Files:
1
Size:
880.55 MiB (923319573 Bytes)
Spoken language(s):
English
Texted language(s):
English
Uploaded:
2017-01-12 12:55:17 GMT
By:
jmanwf VIP
Seeders:
14
Leechers:
1
Comments
0  

Info Hash:
F5BCF20328ACBC8E6832502539FE01CC12327464




(Problems with magnets links are fixed by upgrading your torrent client!)
Description

The crew returns to Geonosis in search of a missing rebel team sent to investigate suspicious activity there, and are surprised by what they find.




Format : Matroska
Format version : Version 4 / Version 2
File size : 881 MiB
Duration : 22 min 7 s
Overall bit rate : 5 566 kb/s
Encoded date : UTC 2017-01-08 09:24:19
Writing application : mkvmerge v9.7.1 ('Pandemonium') 64bit
Writing library : libebml v1.3.4 + libmatroska v1.4.5

Video
ID : 2
Format : AVC
Format/Info : Advanced Video Codec
Format profile : [email protected]
Format settings, CABAC : Yes
Format settings, ReFrames : 4 frames
Codec ID : V_MPEG4/ISO/AVC
Duration : 22 min 7 s
Bit rate : 5 052 kb/s
Width : 1 920 pixels
Height : 1 080 pixels
Display aspect ratio : 16:9
Frame rate mode : Constant
Frame rate : 23.976 (23976/1000) FPS
Color space : YUV
Chroma subsampling : 4:2:0
Bit depth : 8 bits
Scan type : Progressive
Bits/(Pixel*Frame) : 0.102
Stream size : 799 MiB (91%)
Language : English
Default : Yes
Forced : No
Color range : Limited
Color primaries : BT.709
Transfer characteristics : BT.709
Matrix coefficients : BT.709

Audio #1
ID : 1
Format : AAC
Format/Info : Advanced Audio Codec
Format profile : LC
Codec ID : A_AAC
Duration : 22 min 7 s
Bit rate : 127 kb/s
Channel(s) : 2 channels
Channel positions : Front: L R
Sampling rate : 48.0 kHz
Frame rate : 46.875 FPS (1024 spf)
Compression mode : Lossy
Stream size : 20.1 MiB (2%)
Language : English
Default : Yes
Forced : No

Audio #2
ID : 3
Format : AC-3
Format/Info : Audio Coding 3
Mode extension : CM (complete main)
Format settings, Endianness : Big
Codec ID : A_AC3
Duration : 22 min 7 s
Bit rate mode : Constant
Bit rate : 384 kb/s
Channel(s) : 6 channels
Channel positions : Front: L C R, Side: L R, LFE
Sampling rate : 48.0 kHz
Frame rate : 31.250 FPS (1536 spf)
Bit depth : 16 bits
Compression mode : Lossy
Stream size : 60.8 MiB (7%)
Language : English
Default : No
Forced : No

Text
ID : 4
Format : UTF-8
Codec ID : S_TEXT/UTF8
Codec ID/Info : UTF-8 Plain Text
Duration : 21 min 28 s
Bit rate : 96 b/s
Count of elements : 358
Stream size : 15.3 KiB (0%)
Language : English
Default : Yes
Forced : No